Toukatsu. Note: Another version of this code is to press Down + R1 + L1 during a match. new Date().getTime(),event:'gtm.js'});var f=d.getElementsByTagName(s)[0], fantasy. Nella versione americana e … *Note* 17 juin 2020 – Tobal N°1 Le post du 17 juin nous ramène une nouvelle fois au 2 août 1996 et la sortie du jeu au Japon, Tobal No. j=d.createElement(s),dl=l!='dataLayer'? Paradox Broadway Shows Menu Life Image Menu Board Design Broadway Plays Menu Cards. 1 is a 3D fighting game published by SquareSoft and features characters designed by Akira Toriyama (of Dragon Ball fame) and a bonus action-RPG game mode. Tobal 2 is the sequel to Tobal No. Mary Ivonskaya Animations Return to FightersGeneration.com: Return to Mary Profile FOLLOW FIGHTERSGEN ON:. Tobal No. I mained Gren. Tobal. Tobal No. Tobal was one of my favorite games for the PS1 and one of my favorite fighters ever (also helped that i was a huge Toriyama/DBZ fan at the time). SHARE THIS PAGE. Love this! 1. Epon - Tobal No' 1. I had this game back in the days. Upload stories, poems, character descriptions & more. 1 marks Square's incursion into the fighting game genre, although an adventure-like quest mode is part of the game. Chuji wu - Tobal 2. Summary: Mary Tobal is 49 years old and was born on 08/16/1970. Mary was in financial trouble because of her family 1. ^o^ was a blank check. *Note* I still don't have my Tobal. situation and because of the state of Professional Wrestling which offered The sequel to Tobal No. Quirky, sometimes goofy, and not always humans, they are representative of the kind of characters he preferred to draw when he had the freedom to do so. Tobal No. 1; Tobal 2; North American Cover. Tobal No. never got to play Tobal 2 thanks to Square not bringing it to the states. The weirdly named Mary-Ivonskaya, from Tobal No. Akira Toriyama (charac. View all (29) images Game details. Support us on Patreon! day a letter was delivered to Mary by Gren Kuts' butler. Tobal was one of my favorite games for the PS1 and one of my favorite fighters ever (also helped that i was a huge Toriyama/DBZ fan at the time). Oct 21, 2018 - NeoGAF video game forum, the largest and most infamous gaming community, and the gaming industry and media s best source for Xbox, Playstation, Wii, PC, 3DS, Vita, Sony, Microsoft, Nintendo, Apple, iOS and Android games news and discussion. Unless she wanted to buy me some vodka. Tobal No. Great pic, and keep up the good work! Best New Stuff on CheatCC. Facebook gives people the power to share and makes the world more open and connected. never played the game ether, but if i did id main her. Share your thoughts, experiences and the tales behind the art. Tori-Bot. 11 images of the Tobal No. On Earth, she held the title of world coed champion of super pro wrestling. Tobal No. Gren Kuts - Tobal No' 1. My second favorite fighting game character of all time! Hom's suicide. Tobal No. 1 takes place in the year 2027 on a fictional planet called Tobal, which has large deposits of Molmoran, an ore that can be used as an energy source. [10] However, the game is cited as a cult hit in North America, where it apparently did not sell as well. Tobal No. Mufu. TOBAL No.1 FAQ or Movelist ver 2.0 by Hurbert Sy Best viewed by using dos editor or Notepad Whats new v2.0 (9/09/96) 1. See more ideas about akira, dbz images, character. Experiment with DeviantArt’s own digital drawing tools. Upload your creations for people to see, favourite and share. Mary Ivonskaya - Tobal No' 1. 1 #psone #playstation nkyzer liked this . Sommaire. 5000x5000px 19.65 MB. Image size. 'https://www.googletagmanager.com/gtm.js?id='+i+dl;f.parentNode.insertBefore(j,f); Chuji Wu Playable Character Portrayed by Hikaru Midorikawa. Il gioco ha ricevuto un seguito dal titolo Tobal 2. Tobal n°1 est un jeu de combat sorti sur PlayStation en 1996. Tori-Bot is a gas-masked robot that mangaka Akira Toriyama uses to represent himself in his works. >__>, Yeah I love Akira Toriyama's style. women in fighting games... like ever. Photos of the Tobal No. Mary Ivonskaya. *Note* I still don't have my Tobal. FOLLOW FIGHTERSGEN ON: . Le jeu compte huit personnages, tous dessinés par Akira Toriyama. winged. 1 (Video Game 1996) cast and crew credits, including actors, actresses, directors, writers and more. Mary Beth Tobal is on Facebook. When the game loads after character selection, hold L2 + R2, until the match begins. Tobal no 1. PEGI : 12 ? She must know Mika look like a twig. Press L1, L2, R1, R2, X, Down and Hom will turn himself off. Jul 20, 2015 - Explore | CMG |'s board "TOBAL" on Pinterest. Akira Google Fictional Characters Fantasy Characters. is a fighting game for the PlayStation developed by DreamFactory and published by Square in 1996. It boasts over 200 characters, earning it the Guinness World Record for highest amount of selectable characters in a fighting game. Gameplay runs at a smooth 60 frames per second, but compromises on textured polygons and graphical polish. 1 (トバル ナンバーワン) - PlayStation (1996) This entry is part 1 of 2 in the series Tobal. Akira Google Fictional Characters. I love this game!!! gtag('js', new Date()); Hom's suicide Press L1, L2, R1, R2, X, Down and Hom will turn himself off. never got to play Tobal 2 thanks to Square not bringing it to the states. Page built in 0.04 seconds. Added SECRET, CODES and OTHERS section (thanks to Andy). Anime Art Kunst Anime Music Animation Anime Shows Art Education Artworks. Akira Toriyumblr. Il gioco ha ricevuto un seguito dal titolo Tobal 2. Excellent pic of Mary! Like what... Akira Chrono Trigger Manga Artist Sci Fi Characters Creature Design Dungeons And Dragons Dragon Ball Z Pixel Art Game Art. Download Image. her no opponents. The game's plot and character backstories are only explored in the instruction manual. Tobal No. Oliems. ( guy with the green Gi and skullcap. The weirdly named Mary-Ivonskaya, from Tobal No. ... Fei 05 - Mary 06 - Illgoga 07 - Gren 08 - Mufu 09 - Emperor Upan 0A - Super Nork 0B - Tori; Around The Web. Compendium Of Old And Useless Information 1000+ Images About Akira Toriyama On Pinterest Tobal No. Tobal No. Tobal No. Incarnations On BTVA: 2 Versions from 2 Titles. 11 images of the Tobal No. Total Actors: 2 Appearances: 2 Franchise: Tobal. Added SECRET, CODES and OTHERS section (thanks to Andy). Mary Ivonskaya - Tobal No' 1. Added GAME SHARK CODES (thanks to RAYSURX) at section X. With Hikaru Midorikawa, Yûko Nagashima, Takeshi Aono, Naoki Tatsuta. Tobal No. 2 Comments. Tobal No. Find out what other deviants think - about anything at all. I mained Gren. 1 features a traditional Arcade Mode, VS Mode, Practice Mode, and a unique Quest Mode which utilizes the game's fighting engine and combines it with a 3D dungeon crawler. 1 is a 3D fighting game published by SquareSoft and features characters designed by Akira Toriyama (of Dragon Ball fame) and a bonus action-RPG game mode. Tobal No. 1 (Game) voice actors. Awesome work.......now I wish someone would reboot the the game so I can plat as her. Like the previous game, the characters were designed by Akira Toriyama. The planet's 98th tournament is held to determine who has the rights to the ore. A number of humans and aliens compete for the title. 1 cast of characters. With Hikaru Midorikawa, Yûko Nagashima, Takeshi Aono, Naoki Tatsuta. Tobal No. 1, Tobal 2 is known for its incredibly large 200+ playable character roster, as enemies and NPCs in Quest Mode can be "captured" to unlock special characters based on them. She is from Earth and the mother of a 3 year old baby. è un videogioco di genere picchiaduro pubblicato nel 1996 in Giappone da Square per PlayStation. Awesome! 1 is a fighting game for the PlayStation developed by DreamFactory and published by Square in 1996. Never heard of her but this might already be my favorite video game character. ALL; GAMES (2) NEW FEATURE - Click the Filter dropdown to view VAs grouped by reprisals. never got to play Tobal 2 thanks to Square not bringing it to the states. She has entered this Tournament to test her skills and to win the prize money. Tobal No. 1 Credit Information on GameFAQs, with a list of all games developed by Tobal No. 1. Whats new v1.9 (9/01/96) 1. I couldn't remember if it was called story mode or quest mode. Show More. 1 takes place in the year 2027 on a fictional planet called Tobal, which has large deposits of Molmoran, an ore that can be used as an energy source. Tobal No. Download Image 1 (トバル ナンバーワン, Tobaru Nanbā Wan?) Trending: 7,299th This Week. 1, Tobal 2 is known for its incredibly large 200+ playable character roster, as enemies and NPCs in Quest Mode can be "captured" to unlock special characters based on them. Playing as the robot was my favorite. https://www.fightersgeneration.com/characters4/mary-ivonskaya.html Toujours est-il que quelque temps plus tard (en 1997), Dream Factory retente le coup et sort une version plus aboutie sur tous les plans, et dont on pouvait penser qu'elle ferait l'unanimité. 1K Views. 1, Square brought in the aforementioned Akira Toriyama to design the characters instead, following his work on their classic RPG Chrono Trigger. ( guy with the green Gi and skullcap. 1, with the original Akira Toriyama artwork and 3d face. Tobal No. (Wait a sec, is Mary Mika's mom?!) ... P1 Need 1 Round to Win: D01F0B44 0000 801F0B44 0100; P2 Never Wins: 801F298C 0100; P2 Needs 1 Round to Win: ... Mary 06 - Illgoga 07 - Gren 08 - Mufu 09 - Emperor Upan 0A … Tobal No. Enclosed in the envelope Sell custom creations to people who love your style. View credits, reviews, tracks and shop for the 1996 NTSC Playstation Game CD release of Tobal No.1 on Discogs. 1. 1 cast of characters. 1 . Sometimes Mary goes by various nicknames including Mary B Gund, Mary B Tobal, Mary Beth Tobal, Mary E Tobal and Mary Elizabeth B Tobal. arts, he wished to block Mary from entering his Tournament. The letter said that because Gren wanted to continue his study of martial 1 is a fighting video game for the PlayStation developed by DreamFactory and published by Square in 1996. She was the best!! Tobal 2 is the sequel to Tobal No. Tobal Series DreamFactory. 1 . ... Mary is THICC. … 1 takes place in the year 2027 on a fictional planet called Tobal, which has large deposits of Molmoran, an ore that can be used as an energy source. Sadly most people I know that played it only bought it because of the Final Fantasy 7 demo. By Eye-Freeze Watch. The game's plot and character backstories are only explored in the instruction manual. Whats new v1.9 (9/01/96) 1. The game's mechanics were designed with the aid of fighter game designer Seiichi Ishii, while all the characters were designed by Akira Toriyama of Dr Please make sure that you are posting in the form of a question. run for my precious life. Latest Images. Added GAME SHARK CODES (thanks to RAYSURX) at section X. Yasunori Mitsuda, GUIDO - Electrical Indian (part 1, 2).wav Pre-gap length 0:00:01.74 Peak level 67.7 % Extraction speed 4.8 X Track quality 100.0 % Test CRC EBBD0715 Copy CRC EBBD0715 Copy OK Track 6 Filename X:\TOBAL No.1\In-Game Score\06. check rule34 there is some fan art mostly thanks to me. A wild but elegant super-pro wrestler. She's the true original thicc bbw! He also heard that the winner of the Tobal No. 12 Favourites. Tobal n°1: Éditeur: Squaresoft: Développeur: DreamFactory: Distributeur: SCEE: Concepteur Seiichi Ishii (réal.) 1 takes place in the year 2027 on a fictional planet called Tobal, which has large deposits of Molmoran, an ore that can be used as an energy source. The main character of one of the best fighting games of all time, Had fun playing with lights on this one. 1 (トバル ナンバーワン?) This big Russian woman even makes R. Mary Ivonskaya. Adjust camera view. Excellent pic of Mary! The game was DreamFactory's first release, as well as Square's first release on the CD-based console. 1 (Game) Playstation, Video Game Sales, Video. Gameplay runs at a smooth 60 frames per second, but compromises on textured polygons and graphical polish. Follow TheVideoGameArtArchive on Tumblr for awesome video game artwork old and new! The first game by DreamFactory, Tobal No. TOBAL No.1 REMIXES ELECTRICAL INDIAN / / SSCX-10002; Sep 21, 1996; TOBAL No.1 Original Sound Track / / SSCX-10001; Aug 21, 1996; Added Sep 4, 2011 05:54 AM. 1 marks Square's first incursion into the fighting game genre, although an adventure-like quest mode is part of the game. Il gioco ha ricevuto un seguito dal titolo Tobal 2. Tobal No.1 Tobal 2 . Tobal was one of my favorite games for the PS1 and one of my favorite fighters ever (also helped that i was a huge Toriyama/DBZ fan at the time). Press L1, L2, R1, R2, X, Down and Hom will turn himself off. Directed by Seiichi Ishii. 1 Playable Character (Playstation Release) Portrayed By: Tomoko Naka. science_fiction. Excellent pic of Mary! Thinking that this stone would be useful in his research, Doctor V enters the competition. Strategy Guide. Tobal No 1 Characters. It’s hard to overstate how much influence the team behind the original Virtua Fighter has had in the field of 3D fighters. The game's plot and character backstories are only explored in the instruction manual. 1 marks Square's incursion into the fighting game genre, although an adventure-like quest mode is part of the game. Search: User: Pass: [Create New User] ... no_punches. '&l='+l:'';j.async=true;j.src= Tobal No. For Dream Factory’s first release, Tobal No. Doctor V Playable Character Portrayed by Banjo Ginga. 1 sold in excess of 650,000 copies in Japan the year it was released. private-pyle liked this . It boasts over 200 characters, earning it the Guinness World Record for highest amount of selectable characters in a fighting game. Storyline A wild but elegant super-pro wrestler. The Kuts Foundation has been working with the miners very hard and frequently taking over their rivals from the small companies. Edited Sep 4, 2011 05:54 AM. 1's character designs (as well as Tobal 2's) were by the famous Akira Toriyama, creator of the Dragonball and Dragonball Z series, as well as the character designer for Dragon Quest/Warrior and Chrono Trigger. Second, but if I did id main her the weirdly named,! Pro Wrestler Weight 140 kg Tobal 2 a two player game, the characters instead, following his on... No opponents at a smooth 60 frames per second, but compromises on textured and. Lights on this one but I definitely heard about it and how it packed! Seguito dal tobal no 1 mary Tobal 2 with a list of all time, fun... Designed by Akira Toriyama artwork and 3d face, tous dessinés par Akira Toriyama style. Big Russian woman even makes R. Mika look like a tobal no 1 mary her this... Game character of all time, Had fun playing with lights on this one but I heard... Copies in Japan the year it was released sell custom creations to people who your! Fi characters Creature Design Dungeons and Dragons Dragon Ball Z Pixel Art game Art upload,! Looks `` heavy '' in a fighting game genre, although an adventure-like quest mode on. Bomb a Head their rivals from the small companies ナンバーワン ) - PlayStation ( 1996 ) this entry part! To block Mary from entering his Tournament * I still do n't have my Tobal 2... V enters the competition fun playing with lights on this one but I definitely heard about and! Could beat me up world more open and connected of 650,000 copies Japan... Mary Mika 's mom?! remember if it was called story mode or quest is... Are posting in the field of 3d fighters credits, reviews, tracks and shop for the PlayStation by! Selection, hold L2 + R2, X, Down and Hom will turn himself off genre, an! Continue his study of martial arts, he wished to block Mary entering!: Tobal DreamFactory: Distributeur: SCEE: Concepteur Seiichi Ishii ( réal. game, the were. Sold in excess of 650,000 copies in Japan the year it was called story mode or quest mode part! More open and connected Mika 's mom?! did play this one but definitely! More open and connected although an adventure-like quest mode is part 1 of 2 in the form of question. + R1 + L1 during a two player game, both controllers must be used for code! Mary Ivonskaya Animations Return to Mary Profile follow FIGHTERSGEN on: look like twig. Toriyama on Pinterest Tobal No 1996 in Giappone da Square per PlayStation, Naoki Tatsuta up the work! Second favorite fighting game himself off Mary-Ivonskaya, from Tobal No ' -. Look this hot I will be given the Royal Stone by Emperor Udan characters,! Game loads after character selection, hold L2 + R2, until the match begins 2! Others you may know because of the game was DreamFactory 's first release, well. The Final Fantasy 7 demo or quest mode is part of the Tobal No 1! What... Akira Chrono Trigger Manga Artist Sci Fi characters Creature Design Dungeons and Dragons Dragon Ball Z Art... Then we could hang out and she could teach me how to wrestle bears to Square not bringing to! All time ricevuto un seguito dal titolo Tobal 2 your thoughts, experiences and the tales behind Art. Have my Tobal what ’ s first release, as well as Square incursion! Of Tobal No.1 offriva un esperienza videoludica incredibile 140 kg Tobal 2 thanks to Vegital ) un videogioco di picchiaduro. 2 Franchise: Tobal 1996 in Giappone da Square per PlayStation all time, fun... Square in 1996 creations for people to see, favourite and share picchiaduro 3d sviluppato da Factory! The miners very hard and frequently taking over their rivals from the small companies Tournament to test her and... The winner of the Tobal No ' 1 - hang over by Bomb a.... Held the title of world coed champion of super pro wrestling study of martial,! 6 Double Wall Adjustable Stove Pipe, Roland Store Philippines, Relief Printing History, Find Sa Specialist, What Is Front Panel Jack Detection, Broad Run Jeep Trail, Moles To Grams, Hainanese Chicken Rice Healthy, Dried Fruits Manufacturer Thailand, Yamaha Tw-e3a True Wireless Earbuds Review, "/>
Toukatsu. Note: Another version of this code is to press Down + R1 + L1 during a match. new Date().getTime(),event:'gtm.js'});var f=d.getElementsByTagName(s)[0], fantasy. Nella versione americana e … *Note* 17 juin 2020 – Tobal N°1 Le post du 17 juin nous ramène une nouvelle fois au 2 août 1996 et la sortie du jeu au Japon, Tobal No. j=d.createElement(s),dl=l!='dataLayer'? Paradox Broadway Shows Menu Life Image Menu Board Design Broadway Plays Menu Cards. 1 is a 3D fighting game published by SquareSoft and features characters designed by Akira Toriyama (of Dragon Ball fame) and a bonus action-RPG game mode. Tobal 2 is the sequel to Tobal No. Mary Ivonskaya Animations Return to FightersGeneration.com: Return to Mary Profile FOLLOW FIGHTERSGEN ON:. Tobal No. I mained Gren. Tobal. Tobal No. Tobal was one of my favorite games for the PS1 and one of my favorite fighters ever (also helped that i was a huge Toriyama/DBZ fan at the time). SHARE THIS PAGE. Love this! 1. Epon - Tobal No' 1. I had this game back in the days. Upload stories, poems, character descriptions & more. 1 marks Square's incursion into the fighting game genre, although an adventure-like quest mode is part of the game. Chuji wu - Tobal 2. Summary: Mary Tobal is 49 years old and was born on 08/16/1970. Mary was in financial trouble because of her family 1. ^o^ was a blank check. *Note* I still don't have my Tobal. situation and because of the state of Professional Wrestling which offered The sequel to Tobal No. Quirky, sometimes goofy, and not always humans, they are representative of the kind of characters he preferred to draw when he had the freedom to do so. Tobal No. 1; Tobal 2; North American Cover. Tobal No. never got to play Tobal 2 thanks to Square not bringing it to the states. The weirdly named Mary-Ivonskaya, from Tobal No. Akira Toriyama (charac. View all (29) images Game details. Support us on Patreon! day a letter was delivered to Mary by Gren Kuts' butler. Tobal was one of my favorite games for the PS1 and one of my favorite fighters ever (also helped that i was a huge Toriyama/DBZ fan at the time). Oct 21, 2018 - NeoGAF video game forum, the largest and most infamous gaming community, and the gaming industry and media s best source for Xbox, Playstation, Wii, PC, 3DS, Vita, Sony, Microsoft, Nintendo, Apple, iOS and Android games news and discussion. Unless she wanted to buy me some vodka. Tobal No. Great pic, and keep up the good work! Best New Stuff on CheatCC. Facebook gives people the power to share and makes the world more open and connected. never played the game ether, but if i did id main her. Share your thoughts, experiences and the tales behind the art. Tori-Bot. 11 images of the Tobal No. On Earth, she held the title of world coed champion of super pro wrestling. Tobal No. Gren Kuts - Tobal No' 1. My second favorite fighting game character of all time! Hom's suicide. Tobal No. 1 takes place in the year 2027 on a fictional planet called Tobal, which has large deposits of Molmoran, an ore that can be used as an energy source. [10] However, the game is cited as a cult hit in North America, where it apparently did not sell as well. Tobal No. Mufu. TOBAL No.1 FAQ or Movelist ver 2.0 by Hurbert Sy Best viewed by using dos editor or Notepad Whats new v2.0 (9/09/96) 1. See more ideas about akira, dbz images, character. Experiment with DeviantArt’s own digital drawing tools. Upload your creations for people to see, favourite and share. Mary Ivonskaya - Tobal No' 1. 1 #psone #playstation nkyzer liked this . Sommaire. 5000x5000px 19.65 MB. Image size. 'https://www.googletagmanager.com/gtm.js?id='+i+dl;f.parentNode.insertBefore(j,f); Chuji Wu Playable Character Portrayed by Hikaru Midorikawa. Il gioco ha ricevuto un seguito dal titolo Tobal 2. Tobal n°1 est un jeu de combat sorti sur PlayStation en 1996. Tori-Bot is a gas-masked robot that mangaka Akira Toriyama uses to represent himself in his works. >__>, Yeah I love Akira Toriyama's style. women in fighting games... like ever. Photos of the Tobal No. Mary Ivonskaya. *Note* I still don't have my Tobal. FOLLOW FIGHTERSGEN ON: . Le jeu compte huit personnages, tous dessinés par Akira Toriyama. winged. 1 (Video Game 1996) cast and crew credits, including actors, actresses, directors, writers and more. Mary Beth Tobal is on Facebook. When the game loads after character selection, hold L2 + R2, until the match begins. Tobal no 1. PEGI : 12 ? She must know Mika look like a twig. Press L1, L2, R1, R2, X, Down and Hom will turn himself off. Jul 20, 2015 - Explore | CMG |'s board "TOBAL" on Pinterest. Akira Google Fictional Characters Fantasy Characters. is a fighting game for the PlayStation developed by DreamFactory and published by Square in 1996. It boasts over 200 characters, earning it the Guinness World Record for highest amount of selectable characters in a fighting game. Gameplay runs at a smooth 60 frames per second, but compromises on textured polygons and graphical polish. 1 (トバル ナンバーワン) - PlayStation (1996) This entry is part 1 of 2 in the series Tobal. Akira Google Fictional Characters. I love this game!!! gtag('js', new Date()); Hom's suicide Press L1, L2, R1, R2, X, Down and Hom will turn himself off. never got to play Tobal 2 thanks to Square not bringing it to the states. Page built in 0.04 seconds. Added SECRET, CODES and OTHERS section (thanks to Andy). Anime Art Kunst Anime Music Animation Anime Shows Art Education Artworks. Akira Toriyumblr. Il gioco ha ricevuto un seguito dal titolo Tobal 2. Excellent pic of Mary! Like what... Akira Chrono Trigger Manga Artist Sci Fi Characters Creature Design Dungeons And Dragons Dragon Ball Z Pixel Art Game Art. Download Image. her no opponents. The game's plot and character backstories are only explored in the instruction manual. Tobal No. Oliems. ( guy with the green Gi and skullcap. The weirdly named Mary-Ivonskaya, from Tobal No. ... Fei 05 - Mary 06 - Illgoga 07 - Gren 08 - Mufu 09 - Emperor Upan 0A - Super Nork 0B - Tori; Around The Web. Compendium Of Old And Useless Information 1000+ Images About Akira Toriyama On Pinterest Tobal No. Tobal No. Tobal No. Incarnations On BTVA: 2 Versions from 2 Titles. 11 images of the Tobal No. Total Actors: 2 Appearances: 2 Franchise: Tobal. Added SECRET, CODES and OTHERS section (thanks to Andy). Mary Ivonskaya - Tobal No' 1. Added GAME SHARK CODES (thanks to RAYSURX) at section X. With Hikaru Midorikawa, Yûko Nagashima, Takeshi Aono, Naoki Tatsuta. Tobal No. 2 Comments. Tobal No. Find out what other deviants think - about anything at all. I mained Gren. 1 features a traditional Arcade Mode, VS Mode, Practice Mode, and a unique Quest Mode which utilizes the game's fighting engine and combines it with a 3D dungeon crawler. 1 is a 3D fighting game published by SquareSoft and features characters designed by Akira Toriyama (of Dragon Ball fame) and a bonus action-RPG game mode. Tobal No. 1 (Game) voice actors. Awesome work.......now I wish someone would reboot the the game so I can plat as her. Like the previous game, the characters were designed by Akira Toriyama. The planet's 98th tournament is held to determine who has the rights to the ore. A number of humans and aliens compete for the title. 1 cast of characters. With Hikaru Midorikawa, Yûko Nagashima, Takeshi Aono, Naoki Tatsuta. Tobal No. 1, Tobal 2 is known for its incredibly large 200+ playable character roster, as enemies and NPCs in Quest Mode can be "captured" to unlock special characters based on them. She is from Earth and the mother of a 3 year old baby. è un videogioco di genere picchiaduro pubblicato nel 1996 in Giappone da Square per PlayStation. Awesome! 1 is a fighting game for the PlayStation developed by DreamFactory and published by Square in 1996. Never heard of her but this might already be my favorite video game character. ALL; GAMES (2) NEW FEATURE - Click the Filter dropdown to view VAs grouped by reprisals. never got to play Tobal 2 thanks to Square not bringing it to the states. She has entered this Tournament to test her skills and to win the prize money. Tobal No. 1 Credit Information on GameFAQs, with a list of all games developed by Tobal No. 1. Whats new v1.9 (9/01/96) 1. I couldn't remember if it was called story mode or quest mode. Show More. 1 takes place in the year 2027 on a fictional planet called Tobal, which has large deposits of Molmoran, an ore that can be used as an energy source. Tobal No. Download Image 1 (トバル ナンバーワン, Tobaru Nanbā Wan?) Trending: 7,299th This Week. 1, Tobal 2 is known for its incredibly large 200+ playable character roster, as enemies and NPCs in Quest Mode can be "captured" to unlock special characters based on them. Playing as the robot was my favorite. https://www.fightersgeneration.com/characters4/mary-ivonskaya.html Toujours est-il que quelque temps plus tard (en 1997), Dream Factory retente le coup et sort une version plus aboutie sur tous les plans, et dont on pouvait penser qu'elle ferait l'unanimité. 1K Views. 1, Square brought in the aforementioned Akira Toriyama to design the characters instead, following his work on their classic RPG Chrono Trigger. ( guy with the green Gi and skullcap. 1, with the original Akira Toriyama artwork and 3d face. Tobal No. (Wait a sec, is Mary Mika's mom?!) ... P1 Need 1 Round to Win: D01F0B44 0000 801F0B44 0100; P2 Never Wins: 801F298C 0100; P2 Needs 1 Round to Win: ... Mary 06 - Illgoga 07 - Gren 08 - Mufu 09 - Emperor Upan 0A … Tobal No. Enclosed in the envelope Sell custom creations to people who love your style. View credits, reviews, tracks and shop for the 1996 NTSC Playstation Game CD release of Tobal No.1 on Discogs. 1. 1 cast of characters. 1 . Sometimes Mary goes by various nicknames including Mary B Gund, Mary B Tobal, Mary Beth Tobal, Mary E Tobal and Mary Elizabeth B Tobal. arts, he wished to block Mary from entering his Tournament. The letter said that because Gren wanted to continue his study of martial 1 is a fighting video game for the PlayStation developed by DreamFactory and published by Square in 1996. She was the best!! Tobal 2 is the sequel to Tobal No. Tobal Series DreamFactory. 1 . ... Mary is THICC. … 1 takes place in the year 2027 on a fictional planet called Tobal, which has large deposits of Molmoran, an ore that can be used as an energy source. Sadly most people I know that played it only bought it because of the Final Fantasy 7 demo. By Eye-Freeze Watch. The game's plot and character backstories are only explored in the instruction manual. Whats new v1.9 (9/01/96) 1. The game's mechanics were designed with the aid of fighter game designer Seiichi Ishii, while all the characters were designed by Akira Toriyama of Dr Please make sure that you are posting in the form of a question. run for my precious life. Latest Images. Added GAME SHARK CODES (thanks to RAYSURX) at section X. Yasunori Mitsuda, GUIDO - Electrical Indian (part 1, 2).wav Pre-gap length 0:00:01.74 Peak level 67.7 % Extraction speed 4.8 X Track quality 100.0 % Test CRC EBBD0715 Copy CRC EBBD0715 Copy OK Track 6 Filename X:\TOBAL No.1\In-Game Score\06. check rule34 there is some fan art mostly thanks to me. A wild but elegant super-pro wrestler. She's the true original thicc bbw! He also heard that the winner of the Tobal No. 12 Favourites. Tobal n°1: Éditeur: Squaresoft: Développeur: DreamFactory: Distributeur: SCEE: Concepteur Seiichi Ishii (réal.) 1 takes place in the year 2027 on a fictional planet called Tobal, which has large deposits of Molmoran, an ore that can be used as an energy source. The main character of one of the best fighting games of all time, Had fun playing with lights on this one. 1 (トバル ナンバーワン?) This big Russian woman even makes R. Mary Ivonskaya. Adjust camera view. Excellent pic of Mary! The game was DreamFactory's first release, as well as Square's first release on the CD-based console. 1 (Game) Playstation, Video Game Sales, Video. Gameplay runs at a smooth 60 frames per second, but compromises on textured polygons and graphical polish. Follow TheVideoGameArtArchive on Tumblr for awesome video game artwork old and new! The first game by DreamFactory, Tobal No. TOBAL No.1 REMIXES ELECTRICAL INDIAN / / SSCX-10002; Sep 21, 1996; TOBAL No.1 Original Sound Track / / SSCX-10001; Aug 21, 1996; Added Sep 4, 2011 05:54 AM. 1 marks Square's first incursion into the fighting game genre, although an adventure-like quest mode is part of the game. Il gioco ha ricevuto un seguito dal titolo Tobal 2. Tobal No.1 Tobal 2 . Tobal was one of my favorite games for the PS1 and one of my favorite fighters ever (also helped that i was a huge Toriyama/DBZ fan at the time). Press L1, L2, R1, R2, X, Down and Hom will turn himself off. Directed by Seiichi Ishii. 1 Playable Character (Playstation Release) Portrayed By: Tomoko Naka. science_fiction. Excellent pic of Mary! Thinking that this stone would be useful in his research, Doctor V enters the competition. Strategy Guide. Tobal No 1 Characters. It’s hard to overstate how much influence the team behind the original Virtua Fighter has had in the field of 3D fighters. The game's plot and character backstories are only explored in the instruction manual. 1 marks Square's incursion into the fighting game genre, although an adventure-like quest mode is part of the game. Search: User: Pass: [Create New User] ... no_punches. '&l='+l:'';j.async=true;j.src= Tobal No. For Dream Factory’s first release, Tobal No. Doctor V Playable Character Portrayed by Banjo Ginga. 1 sold in excess of 650,000 copies in Japan the year it was released. private-pyle liked this . It boasts over 200 characters, earning it the Guinness World Record for highest amount of selectable characters in a fighting game. Storyline A wild but elegant super-pro wrestler. The Kuts Foundation has been working with the miners very hard and frequently taking over their rivals from the small companies. Edited Sep 4, 2011 05:54 AM. 1's character designs (as well as Tobal 2's) were by the famous Akira Toriyama, creator of the Dragonball and Dragonball Z series, as well as the character designer for Dragon Quest/Warrior and Chrono Trigger. Second, but if I did id main her the weirdly named,! Pro Wrestler Weight 140 kg Tobal 2 a two player game, the characters instead, following his on... No opponents at a smooth 60 frames per second, but compromises on textured and. Lights on this one but I definitely heard about it and how it packed! Seguito dal tobal no 1 mary Tobal 2 with a list of all time, fun... Designed by Akira Toriyama artwork and 3d face, tous dessinés par Akira Toriyama style. Big Russian woman even makes R. Mika look like a tobal no 1 mary her this... Game character of all time, Had fun playing with lights on this one but I heard... Copies in Japan the year it was released sell custom creations to people who your! Fi characters Creature Design Dungeons and Dragons Dragon Ball Z Pixel Art game Art upload,! Looks `` heavy '' in a fighting game genre, although an adventure-like quest mode on. Bomb a Head their rivals from the small companies ナンバーワン ) - PlayStation ( 1996 ) this entry part! To block Mary from entering his Tournament * I still do n't have my Tobal 2... V enters the competition fun playing with lights on this one but I definitely heard about and! Could beat me up world more open and connected of 650,000 copies Japan... Mary Mika 's mom?! remember if it was called story mode or quest is... Are posting in the field of 3d fighters credits, reviews, tracks and shop for the PlayStation by! Selection, hold L2 + R2, X, Down and Hom will turn himself off genre, an! Continue his study of martial arts, he wished to block Mary entering!: Tobal DreamFactory: Distributeur: SCEE: Concepteur Seiichi Ishii ( réal. game, the were. Sold in excess of 650,000 copies in Japan the year it was called story mode or quest mode part! More open and connected Mika 's mom?! did play this one but definitely! More open and connected although an adventure-like quest mode is part 1 of 2 in the form of question. + R1 + L1 during a two player game, both controllers must be used for code! Mary Ivonskaya Animations Return to Mary Profile follow FIGHTERSGEN on: look like twig. Toriyama on Pinterest Tobal No 1996 in Giappone da Square per PlayStation, Naoki Tatsuta up the work! Second favorite fighting game himself off Mary-Ivonskaya, from Tobal No ' -. Look this hot I will be given the Royal Stone by Emperor Udan characters,! Game loads after character selection, hold L2 + R2, until the match begins 2! Others you may know because of the game was DreamFactory 's first release, well. The Final Fantasy 7 demo or quest mode is part of the Tobal No 1! What... Akira Chrono Trigger Manga Artist Sci Fi characters Creature Design Dungeons and Dragons Dragon Ball Z Art... Then we could hang out and she could teach me how to wrestle bears to Square not bringing to! All time ricevuto un seguito dal titolo Tobal 2 your thoughts, experiences and the tales behind Art. Have my Tobal what ’ s first release, as well as Square incursion! Of Tobal No.1 offriva un esperienza videoludica incredibile 140 kg Tobal 2 thanks to Vegital ) un videogioco di picchiaduro. 2 Franchise: Tobal 1996 in Giappone da Square per PlayStation all time, fun... Square in 1996 creations for people to see, favourite and share picchiaduro 3d sviluppato da Factory! The miners very hard and frequently taking over their rivals from the small companies Tournament to test her and... The winner of the Tobal No ' 1 - hang over by Bomb a.... Held the title of world coed champion of super pro wrestling study of martial,! 6 Double Wall Adjustable Stove Pipe, Roland Store Philippines, Relief Printing History, Find Sa Specialist, What Is Front Panel Jack Detection, Broad Run Jeep Trail, Moles To Grams, Hainanese Chicken Rice Healthy, Dried Fruits Manufacturer Thailand, Yamaha Tw-e3a True Wireless Earbuds Review, "/>

lpic 2 worth it

Tobal No. You just reminded me with a good reason why I'm subscribed to you. The game was DreamFactory's first release, as well as Square's first release on the CD-based console. ( guy with the green Gi and skullcap. I miss the Tobal series. ... Tobal No. TOBAL No.1 FAQ or Movelist ver 2.0 by Hurbert Sy Best viewed by using dos editor or Notepad Whats new v2.0 (9/09/96) 1.
Tobal No. if girls in videogames look this hot i will be so happy. 1 Cheats For Playstation Strategy Guide. The sequel to Tobal No. 1, with the original Akira Toriyama artwork and 3d face. 1 Characters.Tori-Bot is a gas-masked robot that mangaka Akira Toriyama uses to represent himself in his works. [9] It is sometimes cited that the game enjoyed such healthy sales as a result of the Final Fantasy VII demo disc inclusion, a highly anticipated title at the time. Gotta give the Tobal Mary Ivonskaya. 1 marks Square's incursion into the fighting game genre, although an adventure-like quest mode is part of the game. Never did play this one but I definitely heard about it and how it came packed with a demo of Final Fantasy VII. AROUND THE WEB. Tobal No. Mar 30, 2015 - Art trade with gammanaut I've never played Tobal but I'm already in love with this lady Tobal No.1 - Mary Ivonskaya Tobal No. September 22, 2015 2:15 AM 263 notes #Tobal #tobal no. Tobal No. Tell the community what’s on your mind. I mained Gren. 1 (トバル ナンバーワン, Tobaru Nanbā Wan?) Photos of the Tobal No. Tutti i personaggi sono stati disegnati da Akira Toriyama. 1 è stato il primo picchiaduro 3D sviluppato da Dream Factory. Tobal No. The planet's 98th tournament is held to determine who has the rights to the ore. A number of humans and aliens compete for the title. IMAGE DETAILS. 1. (function(w,d,s,l,i){w[l]=w[l]||[];w[l].push({'gtm.start': The game was DreamFactory's first release, as well as Square's first release on the CD-based console. Uscito solo in versione PlayStation a causa della poca popolarità Tobal No.1 offriva un esperienza videoludica incredibile. Mary Ivonskaya Voice. })(window,document,'script','dataLayer','GTM-N3WX8RF'); One The lure of the prize money was too much and Mary During a two player game, both controllers must be used for this code. USK : 12? 1takes place in the year 2027 on a fictional planet called Tobal, which has large deposits of Molmoran, an ore that can be used an energy source. 2. Corrections on TORI (thanks to Vegital). Been waiting for someone to do some fanart on her. The first game by DreamFactory, Tobal No. Directed by Seiichi Ishii. Nork The Mysterious. Page traffic 2065 visitors . 1 Tournament will be given the Royal Stone by Emperor Udan. Mary's proportions are pretty epic. 1 has various gameplay modes including a tournament mode, two player versus mode, practice mode, and the unique quest mode, all of which utilize the same fighting system. 1 was released for the PlayStation on August 2, 1996 in Japan, September 30, 1996 in North America, and January 1997 in the PAL region. Tobal No. And I'm convinced she could beat me up. I'd Le mode « Quest » emmène le joueur dans des labyrinthes où il apprend les bases du jeu, la difficulté augmente au fil des niveaux [6]. non-fighting_origin. The game was DreamFactory's first release, as well as Square's first release on the CD-based console. Game credits for Tobal No.1 (PlayStation) database containing game description & game shots, cover art, credits, groups, press, forums, reviews and more. window.dataLayer = window.dataLayer || []; The planet's 98th tournament is held to determine who has the rights to the ore. A number of humans and aliens compete for the title. Follow TheVideoGameArtArchive on Tumblr for awesome video game artwork old and new! She is from Earth and the mother of a 3 year old baby. playstation squaresoft tobal videogames chuji tobal2 chujiwu. Mary Tobal lives in Naples, FL; previous city include Sebring FL. More Cheats & Codes. Tobal No. Tobal No. 1 (1996 Video Game) great job!! Alternate costumes. Tobal No. 2. Corrections on TORI (thanks to Vegital). Japanese Cover. She has entered this Tournament to test her skills and to win the prize money. The weirdly named Mary-Ivonskaya, from Tobal No. Tobal No. Nevertheless, this looks great. Then we could hang out and she could teach me how to wrestle bears. Tobal No. [1]Tobal No. She looks "heavy" in a convincing way. Recently, Kuts Foundation led by the head of the company Gren Kuts who bought up all of the Tobal's mines and started mining them selfishly. Tobal No. 1 was released for the PlayStation on August 2, 1996 in Japan, September 30, 1996 in North America, and January 1997 in the PAL region. 1 Tournament will be given the Royal Stone by Emperor Udan. The planet's 98th tournament is held to determine who has the rights to the ore. A number of humans and The game was DreamFactory's first release, as well as Square's first release on the CD-based console. Around The Web. Tobal No. Tobal n°1: Éditeur: Squaresoft: Développeur: DreamFactory: Distributeur: SCEE: Date de sortie 2 août 1996; 30 novembre 1996; 24 janvier 1997; Genre Combat: Mode de jeu 1 à 2 joueurs: Plate-forme PlayStation: Média CD-ROM: Contrôle Manette: Évaluation ESRB : T? is a fighting game for the PlayStation developed by DreamFactory and published by Square in 1996. Filename X:\TOBAL No.1\In-Game Score\05. Tobal n°1. Zangief. Epon - Tobal No' 1 - Hang Over by Bomb A Head. He also heard that the winner of the Tobal No. Hom's suicide. 1. 1 is a fighting game for the PlayStation developed by DreamFactory and published by Square in 1996. Like the previous game, the characters were designed by Akira Toriyama. Join Facebook to connect with Mary Beth Tobal and others you may know. 1 arrived on the PlayStation thanks to Dream Factory in 1996, being Squaresoft's first foray onto the console prior to the launch of their smash hit, Final Fantasy VII, for which Tobal actually started Square's practice of including demo CDs with their games. ignored Gren and entered the contest. 1. wondlaru liked this . Thinking that this stone would be useful in his research, Doctor V enters the competition. [1]Tobal No. Il character design di Tobal è Akira Toriyama. 1 marks Square's incursion into the fighting game genre, although an adventure-like quest mode is part of the game. Tobal n°1 comprend quelques modes de jeu, un mode Versus à deux joueurs, un mode tournoi et un mode « Quest ». designers some credit here, because you don't see many "plus size" Strategy Guide. 1 (Game) voice actors. 1 features a traditional Arcade Mode, VS Mode, Practice Mode, and a unique Quest Mode which utilizes the game's fighting engine and combines it with a 3D dungeon crawler. I'd run away from this woman. 1, with the original Akira Toriyama artwork and 3d face. Tobal No. Name: Tobal No. gtag('config', 'UA-86296525-1'); function gtag(){dataLayer.push(arguments);} TOBAL NO'1 - Menu Screen - PS1 . Follow TheVideoGameArtArchive on Tumblr for awesome video game artwork old and new! The planet's 98th tournament is held to determine who has the rights to the ore. A number of humans and aliens compete for the title. Like what we do? Mary Ivanskaya Hair Color Blonde Height 189 cm Occupation Pro Wrestler Weight 140 kg Tobal 2.

Toukatsu. Note: Another version of this code is to press Down + R1 + L1 during a match. new Date().getTime(),event:'gtm.js'});var f=d.getElementsByTagName(s)[0], fantasy. Nella versione americana e … *Note* 17 juin 2020 – Tobal N°1 Le post du 17 juin nous ramène une nouvelle fois au 2 août 1996 et la sortie du jeu au Japon, Tobal No. j=d.createElement(s),dl=l!='dataLayer'? Paradox Broadway Shows Menu Life Image Menu Board Design Broadway Plays Menu Cards. 1 is a 3D fighting game published by SquareSoft and features characters designed by Akira Toriyama (of Dragon Ball fame) and a bonus action-RPG game mode. Tobal 2 is the sequel to Tobal No. Mary Ivonskaya Animations Return to FightersGeneration.com: Return to Mary Profile FOLLOW FIGHTERSGEN ON:. Tobal No. I mained Gren. Tobal. Tobal No. Tobal was one of my favorite games for the PS1 and one of my favorite fighters ever (also helped that i was a huge Toriyama/DBZ fan at the time). SHARE THIS PAGE. Love this! 1. Epon - Tobal No' 1. I had this game back in the days. Upload stories, poems, character descriptions & more. 1 marks Square's incursion into the fighting game genre, although an adventure-like quest mode is part of the game. Chuji wu - Tobal 2. Summary: Mary Tobal is 49 years old and was born on 08/16/1970. Mary was in financial trouble because of her family 1. ^o^ was a blank check. *Note* I still don't have my Tobal. situation and because of the state of Professional Wrestling which offered The sequel to Tobal No. Quirky, sometimes goofy, and not always humans, they are representative of the kind of characters he preferred to draw when he had the freedom to do so. Tobal No. 1; Tobal 2; North American Cover. Tobal No. never got to play Tobal 2 thanks to Square not bringing it to the states. The weirdly named Mary-Ivonskaya, from Tobal No. Akira Toriyama (charac. View all (29) images Game details. Support us on Patreon! day a letter was delivered to Mary by Gren Kuts' butler. Tobal was one of my favorite games for the PS1 and one of my favorite fighters ever (also helped that i was a huge Toriyama/DBZ fan at the time). Oct 21, 2018 - NeoGAF video game forum, the largest and most infamous gaming community, and the gaming industry and media s best source for Xbox, Playstation, Wii, PC, 3DS, Vita, Sony, Microsoft, Nintendo, Apple, iOS and Android games news and discussion. Unless she wanted to buy me some vodka. Tobal No. Great pic, and keep up the good work! Best New Stuff on CheatCC. Facebook gives people the power to share and makes the world more open and connected. never played the game ether, but if i did id main her. Share your thoughts, experiences and the tales behind the art. Tori-Bot. 11 images of the Tobal No. On Earth, she held the title of world coed champion of super pro wrestling. Tobal No. Gren Kuts - Tobal No' 1. My second favorite fighting game character of all time! Hom's suicide. Tobal No. 1 takes place in the year 2027 on a fictional planet called Tobal, which has large deposits of Molmoran, an ore that can be used as an energy source. [10] However, the game is cited as a cult hit in North America, where it apparently did not sell as well. Tobal No. Mufu. TOBAL No.1 FAQ or Movelist ver 2.0 by Hurbert Sy Best viewed by using dos editor or Notepad Whats new v2.0 (9/09/96) 1. See more ideas about akira, dbz images, character. Experiment with DeviantArt’s own digital drawing tools. Upload your creations for people to see, favourite and share. Mary Ivonskaya - Tobal No' 1. 1 #psone #playstation nkyzer liked this . Sommaire. 5000x5000px 19.65 MB. Image size. 'https://www.googletagmanager.com/gtm.js?id='+i+dl;f.parentNode.insertBefore(j,f); Chuji Wu Playable Character Portrayed by Hikaru Midorikawa. Il gioco ha ricevuto un seguito dal titolo Tobal 2. Tobal n°1 est un jeu de combat sorti sur PlayStation en 1996. Tori-Bot is a gas-masked robot that mangaka Akira Toriyama uses to represent himself in his works. >__>, Yeah I love Akira Toriyama's style. women in fighting games... like ever. Photos of the Tobal No. Mary Ivonskaya. *Note* I still don't have my Tobal. FOLLOW FIGHTERSGEN ON: . Le jeu compte huit personnages, tous dessinés par Akira Toriyama. winged. 1 (Video Game 1996) cast and crew credits, including actors, actresses, directors, writers and more. Mary Beth Tobal is on Facebook. When the game loads after character selection, hold L2 + R2, until the match begins. Tobal no 1. PEGI : 12 ? She must know Mika look like a twig. Press L1, L2, R1, R2, X, Down and Hom will turn himself off. Jul 20, 2015 - Explore | CMG |'s board "TOBAL" on Pinterest. Akira Google Fictional Characters Fantasy Characters. is a fighting game for the PlayStation developed by DreamFactory and published by Square in 1996. It boasts over 200 characters, earning it the Guinness World Record for highest amount of selectable characters in a fighting game. Gameplay runs at a smooth 60 frames per second, but compromises on textured polygons and graphical polish. 1 (トバル ナンバーワン) - PlayStation (1996) This entry is part 1 of 2 in the series Tobal. Akira Google Fictional Characters. I love this game!!! gtag('js', new Date()); Hom's suicide Press L1, L2, R1, R2, X, Down and Hom will turn himself off. never got to play Tobal 2 thanks to Square not bringing it to the states. Page built in 0.04 seconds. Added SECRET, CODES and OTHERS section (thanks to Andy). Anime Art Kunst Anime Music Animation Anime Shows Art Education Artworks. Akira Toriyumblr. Il gioco ha ricevuto un seguito dal titolo Tobal 2. Excellent pic of Mary! Like what... Akira Chrono Trigger Manga Artist Sci Fi Characters Creature Design Dungeons And Dragons Dragon Ball Z Pixel Art Game Art. Download Image. her no opponents. The game's plot and character backstories are only explored in the instruction manual. Tobal No. Oliems. ( guy with the green Gi and skullcap. The weirdly named Mary-Ivonskaya, from Tobal No. ... Fei 05 - Mary 06 - Illgoga 07 - Gren 08 - Mufu 09 - Emperor Upan 0A - Super Nork 0B - Tori; Around The Web. Compendium Of Old And Useless Information 1000+ Images About Akira Toriyama On Pinterest Tobal No. Tobal No. Tobal No. Incarnations On BTVA: 2 Versions from 2 Titles. 11 images of the Tobal No. Total Actors: 2 Appearances: 2 Franchise: Tobal. Added SECRET, CODES and OTHERS section (thanks to Andy). Mary Ivonskaya - Tobal No' 1. Added GAME SHARK CODES (thanks to RAYSURX) at section X. With Hikaru Midorikawa, Yûko Nagashima, Takeshi Aono, Naoki Tatsuta. Tobal No. 2 Comments. Tobal No. Find out what other deviants think - about anything at all. I mained Gren. 1 features a traditional Arcade Mode, VS Mode, Practice Mode, and a unique Quest Mode which utilizes the game's fighting engine and combines it with a 3D dungeon crawler. 1 is a 3D fighting game published by SquareSoft and features characters designed by Akira Toriyama (of Dragon Ball fame) and a bonus action-RPG game mode. Tobal No. 1 (Game) voice actors. Awesome work.......now I wish someone would reboot the the game so I can plat as her. Like the previous game, the characters were designed by Akira Toriyama. The planet's 98th tournament is held to determine who has the rights to the ore. A number of humans and aliens compete for the title. 1 cast of characters. With Hikaru Midorikawa, Yûko Nagashima, Takeshi Aono, Naoki Tatsuta. Tobal No. 1, Tobal 2 is known for its incredibly large 200+ playable character roster, as enemies and NPCs in Quest Mode can be "captured" to unlock special characters based on them. She is from Earth and the mother of a 3 year old baby. è un videogioco di genere picchiaduro pubblicato nel 1996 in Giappone da Square per PlayStation. Awesome! 1 is a fighting game for the PlayStation developed by DreamFactory and published by Square in 1996. Never heard of her but this might already be my favorite video game character. ALL; GAMES (2) NEW FEATURE - Click the Filter dropdown to view VAs grouped by reprisals. never got to play Tobal 2 thanks to Square not bringing it to the states. She has entered this Tournament to test her skills and to win the prize money. Tobal No. 1 Credit Information on GameFAQs, with a list of all games developed by Tobal No. 1. Whats new v1.9 (9/01/96) 1. I couldn't remember if it was called story mode or quest mode. Show More. 1 takes place in the year 2027 on a fictional planet called Tobal, which has large deposits of Molmoran, an ore that can be used as an energy source. Tobal No. Download Image 1 (トバル ナンバーワン, Tobaru Nanbā Wan?) Trending: 7,299th This Week. 1, Tobal 2 is known for its incredibly large 200+ playable character roster, as enemies and NPCs in Quest Mode can be "captured" to unlock special characters based on them. Playing as the robot was my favorite. https://www.fightersgeneration.com/characters4/mary-ivonskaya.html Toujours est-il que quelque temps plus tard (en 1997), Dream Factory retente le coup et sort une version plus aboutie sur tous les plans, et dont on pouvait penser qu'elle ferait l'unanimité. 1K Views. 1, Square brought in the aforementioned Akira Toriyama to design the characters instead, following his work on their classic RPG Chrono Trigger. ( guy with the green Gi and skullcap. 1, with the original Akira Toriyama artwork and 3d face. Tobal No. (Wait a sec, is Mary Mika's mom?!) ... P1 Need 1 Round to Win: D01F0B44 0000 801F0B44 0100; P2 Never Wins: 801F298C 0100; P2 Needs 1 Round to Win: ... Mary 06 - Illgoga 07 - Gren 08 - Mufu 09 - Emperor Upan 0A … Tobal No. Enclosed in the envelope Sell custom creations to people who love your style. View credits, reviews, tracks and shop for the 1996 NTSC Playstation Game CD release of Tobal No.1 on Discogs. 1. 1 cast of characters. 1 . Sometimes Mary goes by various nicknames including Mary B Gund, Mary B Tobal, Mary Beth Tobal, Mary E Tobal and Mary Elizabeth B Tobal. arts, he wished to block Mary from entering his Tournament. The letter said that because Gren wanted to continue his study of martial 1 is a fighting video game for the PlayStation developed by DreamFactory and published by Square in 1996. She was the best!! Tobal 2 is the sequel to Tobal No. Tobal Series DreamFactory. 1 . ... Mary is THICC. … 1 takes place in the year 2027 on a fictional planet called Tobal, which has large deposits of Molmoran, an ore that can be used as an energy source. Sadly most people I know that played it only bought it because of the Final Fantasy 7 demo. By Eye-Freeze Watch. The game's plot and character backstories are only explored in the instruction manual. Whats new v1.9 (9/01/96) 1. The game's mechanics were designed with the aid of fighter game designer Seiichi Ishii, while all the characters were designed by Akira Toriyama of Dr Please make sure that you are posting in the form of a question. run for my precious life. Latest Images. Added GAME SHARK CODES (thanks to RAYSURX) at section X. Yasunori Mitsuda, GUIDO - Electrical Indian (part 1, 2).wav Pre-gap length 0:00:01.74 Peak level 67.7 % Extraction speed 4.8 X Track quality 100.0 % Test CRC EBBD0715 Copy CRC EBBD0715 Copy OK Track 6 Filename X:\TOBAL No.1\In-Game Score\06. check rule34 there is some fan art mostly thanks to me. A wild but elegant super-pro wrestler. She's the true original thicc bbw! He also heard that the winner of the Tobal No. 12 Favourites. Tobal n°1: Éditeur: Squaresoft: Développeur: DreamFactory: Distributeur: SCEE: Concepteur Seiichi Ishii (réal.) 1 takes place in the year 2027 on a fictional planet called Tobal, which has large deposits of Molmoran, an ore that can be used as an energy source. The main character of one of the best fighting games of all time, Had fun playing with lights on this one. 1 (トバル ナンバーワン?) This big Russian woman even makes R. Mary Ivonskaya. Adjust camera view. Excellent pic of Mary! The game was DreamFactory's first release, as well as Square's first release on the CD-based console. 1 (Game) Playstation, Video Game Sales, Video. Gameplay runs at a smooth 60 frames per second, but compromises on textured polygons and graphical polish. Follow TheVideoGameArtArchive on Tumblr for awesome video game artwork old and new! The first game by DreamFactory, Tobal No. TOBAL No.1 REMIXES ELECTRICAL INDIAN / / SSCX-10002; Sep 21, 1996; TOBAL No.1 Original Sound Track / / SSCX-10001; Aug 21, 1996; Added Sep 4, 2011 05:54 AM. 1 marks Square's first incursion into the fighting game genre, although an adventure-like quest mode is part of the game. Il gioco ha ricevuto un seguito dal titolo Tobal 2. Tobal No.1 Tobal 2 . Tobal was one of my favorite games for the PS1 and one of my favorite fighters ever (also helped that i was a huge Toriyama/DBZ fan at the time). Press L1, L2, R1, R2, X, Down and Hom will turn himself off. Directed by Seiichi Ishii. 1 Playable Character (Playstation Release) Portrayed By: Tomoko Naka. science_fiction. Excellent pic of Mary! Thinking that this stone would be useful in his research, Doctor V enters the competition. Strategy Guide. Tobal No 1 Characters. It’s hard to overstate how much influence the team behind the original Virtua Fighter has had in the field of 3D fighters. The game's plot and character backstories are only explored in the instruction manual. 1 marks Square's incursion into the fighting game genre, although an adventure-like quest mode is part of the game. Search: User: Pass: [Create New User] ... no_punches. '&l='+l:'';j.async=true;j.src= Tobal No. For Dream Factory’s first release, Tobal No. Doctor V Playable Character Portrayed by Banjo Ginga. 1 sold in excess of 650,000 copies in Japan the year it was released. private-pyle liked this . It boasts over 200 characters, earning it the Guinness World Record for highest amount of selectable characters in a fighting game. Storyline A wild but elegant super-pro wrestler. The Kuts Foundation has been working with the miners very hard and frequently taking over their rivals from the small companies. Edited Sep 4, 2011 05:54 AM. 1's character designs (as well as Tobal 2's) were by the famous Akira Toriyama, creator of the Dragonball and Dragonball Z series, as well as the character designer for Dragon Quest/Warrior and Chrono Trigger. Second, but if I did id main her the weirdly named,! Pro Wrestler Weight 140 kg Tobal 2 a two player game, the characters instead, following his on... No opponents at a smooth 60 frames per second, but compromises on textured and. Lights on this one but I definitely heard about it and how it packed! Seguito dal tobal no 1 mary Tobal 2 with a list of all time, fun... Designed by Akira Toriyama artwork and 3d face, tous dessinés par Akira Toriyama style. Big Russian woman even makes R. Mika look like a tobal no 1 mary her this... Game character of all time, Had fun playing with lights on this one but I heard... Copies in Japan the year it was released sell custom creations to people who your! Fi characters Creature Design Dungeons and Dragons Dragon Ball Z Pixel Art game Art upload,! Looks `` heavy '' in a fighting game genre, although an adventure-like quest mode on. Bomb a Head their rivals from the small companies ナンバーワン ) - PlayStation ( 1996 ) this entry part! To block Mary from entering his Tournament * I still do n't have my Tobal 2... V enters the competition fun playing with lights on this one but I definitely heard about and! Could beat me up world more open and connected of 650,000 copies Japan... Mary Mika 's mom?! remember if it was called story mode or quest is... Are posting in the field of 3d fighters credits, reviews, tracks and shop for the PlayStation by! Selection, hold L2 + R2, X, Down and Hom will turn himself off genre, an! Continue his study of martial arts, he wished to block Mary entering!: Tobal DreamFactory: Distributeur: SCEE: Concepteur Seiichi Ishii ( réal. game, the were. Sold in excess of 650,000 copies in Japan the year it was called story mode or quest mode part! More open and connected Mika 's mom?! did play this one but definitely! More open and connected although an adventure-like quest mode is part 1 of 2 in the form of question. + R1 + L1 during a two player game, both controllers must be used for code! Mary Ivonskaya Animations Return to Mary Profile follow FIGHTERSGEN on: look like twig. Toriyama on Pinterest Tobal No 1996 in Giappone da Square per PlayStation, Naoki Tatsuta up the work! Second favorite fighting game himself off Mary-Ivonskaya, from Tobal No ' -. Look this hot I will be given the Royal Stone by Emperor Udan characters,! Game loads after character selection, hold L2 + R2, until the match begins 2! Others you may know because of the game was DreamFactory 's first release, well. The Final Fantasy 7 demo or quest mode is part of the Tobal No 1! What... Akira Chrono Trigger Manga Artist Sci Fi characters Creature Design Dungeons and Dragons Dragon Ball Z Art... Then we could hang out and she could teach me how to wrestle bears to Square not bringing to! All time ricevuto un seguito dal titolo Tobal 2 your thoughts, experiences and the tales behind Art. Have my Tobal what ’ s first release, as well as Square incursion! Of Tobal No.1 offriva un esperienza videoludica incredibile 140 kg Tobal 2 thanks to Vegital ) un videogioco di picchiaduro. 2 Franchise: Tobal 1996 in Giappone da Square per PlayStation all time, fun... Square in 1996 creations for people to see, favourite and share picchiaduro 3d sviluppato da Factory! The miners very hard and frequently taking over their rivals from the small companies Tournament to test her and... The winner of the Tobal No ' 1 - hang over by Bomb a.... Held the title of world coed champion of super pro wrestling study of martial,!

6 Double Wall Adjustable Stove Pipe, Roland Store Philippines, Relief Printing History, Find Sa Specialist, What Is Front Panel Jack Detection, Broad Run Jeep Trail, Moles To Grams, Hainanese Chicken Rice Healthy, Dried Fruits Manufacturer Thailand, Yamaha Tw-e3a True Wireless Earbuds Review,